【维多利亚的秘密内衣秀2017(上海)】全球美女超模 收藏版1080i/TS

image.pngimage.pngimage.png

1080i普通版视频参数(60fps / DTS 5.1)

General
Unique ID : 198278693116789408771285385503491589211 (0x952B1655690FA7BEB0FEB95BFDD5845B)
Complete name : The.Victoria.Secret.Fashion.Show.2017.1080i.HDTV.DTS-HD.MA5.1.H264-ALANiS.mkv
Format : Matroska
Format version : Version 4 / Version 2
File size : 5.20 GiB
Duration : 42 min 29 s
Overall bit rate : 17.5 Mbps
Encoded date : UTC 2017-11-29 04:50:41
Writing application : mkvmerge v18.0.0 ('Apricity') 64-bit
Writing library : libebml v1.3.5 + libmatroska v1.4.8

Video
ID : 1
Format : AVC
Format/Info : Advanced Video Codec
Format profile : High 4:2:2@L4.1
Format settings : CABAC / 2 Ref Frames
Format settings, CABAC : Yes
Format settings, RefFrames : 2 frames
Codec ID : V_MPEG4/ISO/AVC
Duration : 42 min 29 s
Bit rate mode : Constant
Bit rate : 13.5 Mbps
Nominal bit rate : 15.2 Mbps
Width : 1920 pixels
Height : 1080 pixels
Display aspect ratio : 16:9
Frame rate mode : Variable
Frame rate : 59.940 (60000/1001) FPS
Original frame rate : 29.970 (30000/1001) FPS
Color space : YUV
Chroma subsampling : 4:2:2
Bit depth : 8 bits
Scan type : Interlaced
Scan type, store method : Separated fields
Scan order : Top Field First
Bits/(Pixel*Frame) : 0.109
Stream size : 4.00 GiB (77%)
Default : Yes
Forced : No

Audio #1
ID : 2
Format : DTS
Format/Info : Digital Theater Systems
Format profile : MA / Core
Mode : 16
Format settings, Endianness : Big
Codec ID : A_DTS
Duration : 42 min 29 s
Bit rate mode : Variable / Constant
Bit rate : 3840 kbps / 1509 kbps
Channel(s) : 6 channels
Channel positions : Front: L C R, Side: L R, LFE
Sampling rate : 48.0 kHz
Frame rate : 93.750 FPS (512 SPF)
Bit depth : 24 bits
Compression mode : Lossless / Lossy
Stream size : 1.12 GiB (22%)
Language : English
Default : Yes
Forced : No

Audio #2
ID : 3
Format : MPEG Audio
Format version : Version 1
Format profile : Layer 2
Codec ID : A_MPEG/L2
Codec ID/Hint : MP2
Duration : 42 min 29 s
Bit rate mode : Constant
Bit rate : 256 kbps
Channel(s) : 2 channels
Sampling rate : 48.0 kHz
Frame rate : 41.667 FPS (1152 SPF)
Compression mode : Lossy
Stream size : 77.8 MiB (1%)
Language : English
Default : No
Forced : No

1080p普通版视频参数(30fps)

General
Unique ID : 239541935378140572488514823114914194613 (0xB436193FB15416F8825ED3FE16BEE4B5)
Complete name : The.Victorias.Secret.Fashion.Show.2017.1080p.AMZN.WEB-DL.DDP5.1.H.264-NTb.mkv
Format : Matroska
Format version : Version 4 / Version 2
File size : 4.05 GiB
Duration : 40 min 32 s
Overall bit rate mode : Variable
Overall bit rate : 14.3 Mbps
Encoded date : UTC 2017-12-11 19:36:59
Writing application : mkvmerge v10.0.0 ('To Drown In You') 64bit
Writing library : libebml v1.3.4 + libmatroska v1.4.5

Video
ID : 1
Format : AVC
Format/Info : Advanced Video Codec
Format profile : High@L4
Format settings : CABAC / 4 Ref Frames
Format settings, CABAC : Yes
Format settings, RefFrames : 4 frames
Codec ID : V_MPEG4/ISO/AVC
Duration : 40 min 32 s
Bit rate mode : Variable
Bit rate : 13.6 Mbps
Maximum bit rate : 15.0 Mbps
Width : 1920 pixels
Height : 1080 pixels
Display aspect ratio : 16:9
Frame rate mode : Constant
Frame rate : 29.970 (30000/1001) FPS
Color space : YUV
Chroma subsampling : 4:2:0
Bit depth : 8 bits
Scan type : Progressive
Bits/(Pixel*Frame) : 0.220
Stream size : 3.86 GiB (96%)
Default : Yes
Forced : No
Color range : Limited
Color primaries : BT.709
Transfer characteristics : BT.709
Matrix coefficients : BT.709

Audio
ID : 2
Format : E-AC-3
Format/Info : Enhanced Audio Coding 3
Format settings, Endianness : Big
Codec ID : A_EAC3
Duration : 40 min 32 s
Bit rate mode : Constant
Bit rate : 640 kbps
Channel(s) : 6 channels
Channel positions : Front: L C R, Side: L R, LFE
Sampling rate : 48.0 kHz
Frame rate : 187.500 FPS (256 SPF)
Compression mode : Lossy
Stream size : 186 MiB (4%)
Language : English
Service kind : Complete Main
Default : Yes
Forced : No


AD:【支付宝搜索:517871776 每天领红包】点击领取
附件列表 (2)
游客,如果您要查看隐藏内容请 登录 | QQ登录
CTRL+D快速收藏,欢迎常来喔

本文链接:【维多利亚的秘密内衣秀2017(上海)】全球美女超模 收藏版1080i/TS - http://bkmyw.com/post-4092.html

发表评论
您需要登录后才可以回复 登录 | 注册 | QQ登录
8 评论
  • jinxizhe
    08-08
    表情支持一下,彩神争8讨论群_大发各版本app_app登入有你更精彩
  • a
    a
    07-30
    谢谢分享。大长腿
  • zas10086
    07-23
    彩神争8讨论群_大发各版本app_app登入有你更精彩
  • ‏
    07-02
    表情支持一下,彩神争8讨论群_大发各版本app_app登入有你更精彩
  • 浮生若梦
    07-02
    经典
  • fffff55
    06-28
    支持
  • 宇之梦
    06-21
    经典
  • Strife
    06-18
    新人报道表情学习一下